Меню

Би 2 молитва flac

Hit-Muzik.ru

Привет, Гость

Наша группа в ВК

Копилка сайта

Правообладателям

Для удаления авторских файлов, пишите по адреcу: [email protected] .
Чтобы ваше письмо не было проигнорировано и было обработано автоматической системой удаления авторских раздач, необходимо соблюдать правила оформления текста:
* Присылайте абсолютные адреса ссылок на торрент-раздачи (с табуляцией, с отступами)
* Ни pdf, ни doc файлы не читаются скриптом, за исключением rtf формата

Просьба это учесть при оформлении письма (ем).

Связанные раздачи

БИ-2 — Spirit (2CD) [2011, Rock, FLAC]

Скачать Исчерпан лимит скачиваний, возможность скачать раздачу появится завтра. Если вы гость — Авторизуйтесь, чтобы получить дополнительные слоты.
Лимит скачиваний в день: 10
Теги rock, 2011
Описание

Формат: FLAC, (image + .cue), lossless
Год выпуска: 2011
Страна: Россия
Жанр: Rock
Продолжительность: 01:22:29
Описание:

CD1:
01. Девушки
02. Оптимист
03. Заноза
04. Любовь и ненависть
05. Безвоздушная тревога (feat. Т. Гвердцители)
06. Блеф
07. Блюз (feat. Н. Полева)
08. 1000 миль
09. Гонка за жизнь
10. Северная лень
11. Место под солнцем
12. Молитва

CD2 — Bonus:
01. Остров (feat. Пикник)
02. Время луны
03. Бегущий по лезвию бритвы (feat. В. Демидова)
04. Февраль (feat. Ю. Чичерина)
05. Не свернуть (на огни)
06. Бумажный змей (feat. А. Севидов)

Доп. информация:

Exact Audio Copy V1.0 beta 3 from 29. August 2011

Отчёт EAC об извлечении, выполненном 7. февраля 2012, 19:29

Дисковод: HL-DT-STDVDRAM GH22NS40 Adapter: 4 ID: 0

Режим чтения : Достоверность
Использование точного потока : Да
Отключение кэша аудио : Да
Использование указателей C2 : Нет

Коррекция смещения при чтении : 667
Способность читать области Lead-in и Lead-out : Нет
Заполнение пропущенных сэмплов тишиной : Да
Удаление блоков с тишиной в начале и конце : Нет
При вычислениях CRC использовались нулевые сэмплы : Да
Интерфейс : Встроенный Win32-интерфейс для Win NT/2000

Выходной формат : Пользовательский кодировщик
Выбранный битрейт : 128 kBit/s
Качество : Высокий
Добавление ID3-тега : Да
Утилита сжатия : C:\Program Files\FLAC\flac.exe
Дополнительные параметры : -V -8 -T «Date=%year%» -T «Genre=%genre%» %source%

Трек | Старт | Длительность | Начальный сектор | Конечный сектор
———————————————————————
1 | 0:00.00 | 3:44.59 | 0 | 16858
2 | 3:44.59 | 5:22.18 | 16859 | 41026
3 | 9:07.02 | 4:02.72 | 41027 | 59248
4 | 13:09.74 | 6:14.34 | 59249 | 87332
5 | 19:24.33 | 5:14.66 | 87333 | 110948
6 | 24:39.24 | 4:18.32 | 110949 | 130330
7 | 28:57.56 | 5:05.68 | 130331 | 153273
8 | 34:03.49 | 4:25.66 | 153274 | 173214
9 | 38:29.40 | 3:54.03 | 173215 | 190767
10 | 42:23.43 | 3:36.66 | 190768 | 207033
11 | 46:00.34 | 3:58.44 | 207034 | 224927
12 | 49:59.03 | 5:37.66 | 224928 | 250268

Характеристики диапазона извлечения и сообщения об ошибках

Имя файла E:\!mp3\Би-2\2011 Spirit\B2_Spirit_flac\БИ-2 — Spirit.wav

Пиковый уровень 100.0 %
Скорость извлечения 2.0 X
Качество диапазона 99.9 %
CRC теста DB063242
CRC копии DB063242
Копирование. OK

Отчёт EAC об извлечении, выполненном 8. февраля 2012, 17:53

Дисковод: HL-DT-STDVDRAM GH22NS40 Adapter: 4 ID: 0

Режим чтения : Достоверность
Использование точного потока : Да
Отключение кэша аудио : Да
Использование указателей C2 : Нет

Коррекция смещения при чтении : 667
Способность читать области Lead-in и Lead-out : Нет
Заполнение пропущенных сэмплов тишиной : Да
Удаление блоков с тишиной в начале и конце : Нет
При вычислениях CRC использовались нулевые сэмплы : Да
Интерфейс : Встроенный Win32-интерфейс для Win NT/2000

Выходной формат : Пользовательский кодировщик
Выбранный битрейт : 128 kBit/s
Качество : Высокий
Добавление ID3-тега : Да
Утилита сжатия : C:\Program Files\FLAC\flac.exe
Дополнительные параметры : -V -8 -T «Date=%year%» -T «Genre=%genre%» %source%

Трек | Старт | Длительность | Начальный сектор | Конечный сектор
———————————————————————
1 | 0:00.00 | 3:56.02 | 0 | 17701
2 | 3:56.02 | 2:56.67 | 17702 | 30968
3 | 6:52.69 | 4:44.42 | 30969 | 52310
4 | 11:37.36 | 4:34.41 | 52311 | 72901
5 | 16:12.02 | 3:54.58 | 72902 | 90509
6 | 20:06.60 | 6:45.52 | 90510 | 120936

Характеристики диапазона извлечения и сообщения об ошибках

Имя файла E:\!mp3\Би-2\2011 Spirit\B2_Spirit_flac\БИ-2 — Spirit Bonus CD.wav

Пиковый уровень 100.0 %
Скорость извлечения 1.5 X
Качество диапазона 100.0 %
CRC теста 42282564
CRC копии 42282564
Копирование. OK

==== Контрольная сумма отчёта D61309B065D704C408558A8BA96057CB7A993900A190B5821A74AE4982BE023B ====

Источник статьи: http://hit-muzik.ru/details.php?id=379170

Би 2 молитва flac

Продолжительность: 22:13:18
Формат/Кодек: FLAC (image+.cue)
Битрейт аудио: lossless


Продолжительность: 00:54:14+00:43:53
Треклист:
CD1
01. Любовь
02. Время
03. Небо
04. Свадебная песня
05. Птицы
06. Лав-ка
07. Отражение
08. Тени
09. Любовь (часть вторая)
10. Время перемен
Bonus:
11. Медленная звезда EP (Для друзей, Цветы, Откровение, Холод, Для друзей (reprise))
+ video:
Свадебная песня
Лёд
Слайдшоу

CD2
01. Небо (версия 2004)
02. Невероятная история (Всё не так)
03. Время (версия 2004)
04. Кого ты ждёшь
05. Ice (feat. M. Aliani)
06. Shop (feat. M. Aliani)
07. Лав-ка (версия Ernie`98)
08. Дом (live @ Espy notel` 15.06.1996)
09. Для нас (live @ Espy notel` 20.08.1997)
10. В пути
+ video:
Для друзей
G-Star
Ом
Под беспризорными дождями


Продолжительность: 00:54:16+00:29:08
Треклист:
CD1
01. . И корабль плывёт
02. Восток
03. Сердце
04. Мой друг
05. Счастье
06. Никто не придёт
07. Полковнику никто не пишет
08. Деньги на ветер
09. Медленно схожу с ума
10. Варвара
11. Серебро

CD2
01. И корабль плывёт (Ernie O version, Melbourne 1999)
02. Варвара (feat. dj Zeel, [email protected] Tennis Club, Melbourne 1998)
03. Медленно схожу с ума (Ernie O version, Melbourne 1999)
04. Варвара (feat. dj Zeel, dance remix by Ernie O, Melbourne 1999)
05. Счастье (Ernie O version, Melbourne 1999)
06. Серебро (acoustic version)


Продолжительность: 01:04:05+00:28:52
Треклист:
CD1
01. Караоке
02. Bowie
03. Банзай
04. Муза
05. Шар Земной
06. Третий Рим
07. Смертельный номер
08. До утра (feat. Ю. Чичерина)
09. Чёрная река
10. Тесла
11. Луна-парк
12. Деревянные солдаты
13. Шамбала
14. Школа танцев
15. Christmas

CD2
01. В чужом краю
02. Jazz
03. Тень
04. Всё, что было потом (feat. В. «Победа» Билоган)
05. Сначала (feat. Е. Кауфман (Truffele))
06. Другое место
07. Солдат 2


Продолжительность: 01:02:11+01:02:01
Треклист:
CD1
01. Intro
02. Зажигать
03. Последний герой
04. И корабль плывёт.
05. Достучаться до небес
06. Небо без края (feat. И. Желанная)
07. Скользкие улицы (feat. «Brainstorm»)
08. Теряю голову
09. Фламенко
10. Мой рок-н-ролл (feat. Ю. Чичерина)
11. Моя любовь
12. Медленная звезда (feat. Д. Арбенина)
13. Реки

CD2
01. Дурочка
02. Научи меня быть счастливым (feat. «Вельвеt»)
03. С тобой
04. Из-за меня (feat. Д. Арбенина)
05. Прощай, Берлин
06. В этом городе (feat. И. Желанная)
07. Варвара
08. Забери меня (feat. И. Желанная)
09. Небо
10. Провидение новой луны (feat. Т. Кузнецова)
11. Волки
12. Полковнику никто не пишет
13. Серебро


Продолжительность: 00:55:46+00:20:31
Треклист:
CD1
01. Девушки
02. Оптимист
03. Заноза
04. Любовь и ненависть
05. Безвоздушная тревога (feat. Т. Гвердцители)
06. Блеф
07. Блюз (feat. Н. Полева)
08. 1000 миль
09. Гонка за жизнь
10. Северная лень
11. Место под солнцем
12. Молитва

CD2
01. Остров (feat. «Пикник»)
02. Время Луны
03. Бегущий по лезвию бритвы (feat. В. Демидова)
04. Февраль (feat. Ю. Чичерина)
05. Не свернуть (На огни)


Продолжительность: 00:56:42+00:20:39
Треклист:
CD1
01. Не умирать молодым
02. Хипстер
03. Блюз 16+
04. Забрали в армию
05. Тёмные небеса (feat. «Смысловые галлюцинации»)
06. Музыка без причин (feat. Elizaveta & В. Гаина)
07. Над пропастью во ржи
08. Мать
09. Компромисс
10. Остров сломанных игрушек
11. Только любовь починит (feat. Elizaveta)
12. Три сантиметра над землёй

CD2
01. Дайте огня (feat. «Альянс»)
02. Нэпман («АукцЫон» cover)
03. Робот (feat. Yuri Usachev)
04. Хипстер (nu disco mix by Fun2mass Records)
05. Тёмные небеса (feat. «Смысловые галлюцинации») (remix by Yuri Usachev feat. Тина)


Продолжительность: 00:46:51+00:24:03
Треклист:
CD1
01. Лётчик
02. Чёрное Солнце
03. Тема века
04. Детство
05. Философский камень
06. Лайки (feat. Е. Кауфман)
07. Виски (feat. John Grant)
08. Пора возвращаться домой (feat. Oxxxymiron)
09. Пофигу
10. Алиса (памяти А. Ротаня)
11. Родина

CD2
01. ХалиГалиКришна (feat. Глеб Самойлов) («Агата Кристи» cover)
02. Хороводная (feat. В. Сологуб & Mana Island)
03. Иначе (feat. John Grant)
04. Дебют (feat. О. Нестеров)
05. Птица на подоконнике

Источник статьи: http://flacme.ru/2020/11/19/bi-2-kollekcija-25-cd-1998-2019-flac.html

Читайте также:  Молитвы в дорогу близким людям